La storia siamo noi – Kursk Trappola mortale (2008) 512×288 x264 AAC.mkv

La storia siamo noi – Kursk Trappola mortale (2008) 512×288 x264 AAC.mkv
Format : Matroska
Format version : Version 4 / Version 2
File size : 166 MiB
Duration : 51mn 59s
Overall bit rate : 446 Kbps
Encoded date : UTC 2016-09-11 23:20:53
Writing application : mkvmerge v8.8.0 (‘Wind at my back’) 64bit
Writing library : libebml v1.3.3 + libmatroska v1.4.4

Video
ID : 1
Format : AVC
Format/Info : Advanced Video Codec
Format profile : [email protected]
Format settings, CABAC : Yes
Format settings, ReFrames : 2 frames
Format settings, GOP : M=1, N=25
Codec ID : V_MPEG4/ISO/AVC
Duration : 51mn 59s
Bit rate mode : Constant
Bit rate : 400 Kbps
Width : 512 pixels
Height : 288 pixels
Display aspect ratio : 16:9
Frame rate mode : Constant
Frame rate : 25.000 fps
Standard : Component
Color space : YUV
Chroma subsampling : 4:2:0
Bit depth : 8 bits
Scan type : Progressive
Bits/(Pixel*Frame) : 0.109
Stream size : 148 MiB (89%)
Title : AVC
Default : Yes
Forced : No
Color range : Limited

Audio
ID : 2
Format : AAC
Format/Info : Advanced Audio Codec
Format profile : LC
Codec ID : A_AAC
Duration : 51mn 59s
Bit rate : 45.5 Kbps
Channel(s) : 2 channels
Channel positions : Front: L R
Sampling rate : 48.0 KHz
Frame rate : 46.875 fps (1024 spf)
Compression mode : Lossy
Stream size : 16.9 MiB (10%)
Title : AAC
Language : Italian
Default : Yes
Forced : No